เติมเงินเพื่อแทงบอล และ เล่นเกมส์ {ด้วยบัตรทรูมันนี่} | เพิ่มค่า Upload และ Ratio {ด้วยบัตรทรูมันนี่} | สมัครVIP ได้Seedเป็น2เท่าจากปกติและโหลดฟรีทุกไฟล์ {ด้วยบัตรทรูมันนี่} | บริจาคเว็บแบบสมัคร VIP ผ่านธนาคาร {update ใน 24 ช.ม.}

เทพดราม่า  
10 กระทู้ล่าสุด !!
  ประชาสัมพันธ์ : 2014-04-16 : เปิดฟรี X2 สำหรับ user ปกติ VIP x4 ทุกไฟล์ ถึงสิ้นเดือนเมษายน                  2014-03-02 : ไฟล์ไหนที่เจ้าของไฟล์ห้ามปล่อยต่อ ใครนำไปปล่อยต่อ แบน ทันที                  2014-03-02 : ใครใช้ Utorrent เวอร์ชั่น 3 แล้วมีปัญหา finding reers ให้เปลี่ยนมาใช้ เวอร์ชั่น 1 หรือ 2                  
 : เว็บแนะนำ : เว็บฝากรูป

[ฝรั่ง]-[Mini-HD] Eagle Eye (2008) - อีเกิล อาย แผนสังหารพลิกนรก [พากย์:ไทย/Eng][720i/p]-MiniBD.AC-3.720p. [Modified]-[พากย์ไทย]
* ร่วมด้วยช่วยกันแสดงความคิดเห็น, กด Thanks, ให้โหวต เพื่อสร้างกำลังใจและเป็นการขอบคุณต่อผู้นำไฟล์มาปล่อย
* เมื่อดาวน์โหลดเสร็จกรุณาอย่ากดหยุดในทันที ร่วมกันปล่อยไฟล์ให้นานที่สุดเท่าที่ทำได้ ...

อคฺคสฺส ทาตา ลภเต ปุนคฺคํ : ผู้ให้สิ่งที่เลิศ ย่อมได้สิ่งที่เลิศอีก

Download This
[ Download as Zip ]
[ฝรั่ง]-[Mini-HD] Eagle Eye (2008) - อีเกิล อาย แผนสังหารพลิกนรก [พากย์:ไทย/Eng][720i/p]-MiniBD.AC-3.720p. [Modified]-[พากย์ไทย]

ขนาดไฟล์ : 2.26 GB (2,429,268,017 bytes)

จำนวนไฟล์ : 1 ไฟล์

Info Hash: 3ec1ecdb2cae3cf21bb1d787685df4bf
Rating ..!!

Rating: 5.0/5 (1 vote cast)


หากไม่สามารถโหลด Torrent ได้ โดยที่ขึ้นว่า torrent is not valid ให้ทำการโหลดแบบ zip ที่ด้านล่างปุ่ม download สีเขียวแล้วไป แตกไฟล์ แทน  แบบรูปนี้

ใครพบเจอโฆษณาแฝงในไฟล์ เช่น ss เป็นรูปโฆษณาไม่เกี่ยวกับไฟล์ หรือ ตัวหนังมีการเขียนโฆษณาเว็บไซต์ แจ้งได้ที่ทีมงาน คนแรกที่แจ้งรับ 10,000 ริง Staff PM

 เพื่อป้องกันปัญหาที่อาจเกิดขึ้นกับการโหลด หนังใหม่,หนังไทยเช่น โหลดไม่ได้ แล้ว ขึ้น Finding Peer ในการ Download ขอให้ท่านใช้โปรแกรม เวอร์ชั่นนี้ เท่านั้น uTorrent uTorrent หรือ \uTorrent" BitComet 0.70

-:- รายละเอียดไฟล์ -:-

ลิ้งค์/รูปประกอบ: http://upload.armuay.com/img/2012-10-24/10-28-25_0.20999.png
[ฝรั่ง]-[Mini-HD] Eagle Eye (2008)  -  อีเกิล อาย แผนสังหารพลิกนรก [พากย์:ไทย/Eng][720i/p]-MiniBD.AC-3.720p. [Modified]-[พากย์ไทย]







เจอร์รี่ ชอว์ (ไชอา ลาบัฟฟ์) และ ราเชล ฮอลโลแมน (มิเชลล์ โมนาฮาน) ไม่เคยรู้จักกันมาก่อน แต่ถูกดึงให้มาเจอกันด้วยโทรศัพท์ลึกลับจากผู้หญิงคน หนึ่ง ผู้หญิงคนนี้คุกคามทั้งชีวิตและครอบครัวของสองหนุ่มส าว บีบให้เจอร์รี่และราเชลต้องเผชิญกับสถานการณ์อันตราย ที่เสี่ยงตายมากขึ้น เรื่อยๆ และใช้เทคโนโลยีที่ใช้กันในชีวิตประจำวัน คอยตามรอยและบงการทุกความเคลื่อนไหวของพวกเขา



เมื่อสถานการณ์รุนแรงมากขึ้น หนุ่มสาวธรรมดาสองคนกลับกลายเป็นผู้ร้ายที่เจ้าหน้าท ี่บ้านเมืองต้องการตัว ที่สุด พวกเขาจึงต้องร่วมมือกันเพื่อหาความจริงให้ได้ว่ามัน เกิดอะไรขึ้น และขณะต่อสู้เพื่อเอาชีวิตรอดอยู่นั้น พวกเขาได้กลายเป็นเบี้ยของศัตรูที่พวกเขาไม่เคยเห็นห น้า ผู้ดูจะมีอำนาจอย่างมหาศาลในการควบคุมทุกสิ่งทุกอย่า งที่พวกเขาทำ





Audio #1

ID : 2

Format : AC-3

Format/Info : Audio Coding 3

Codec ID : A_AC3

Duration : 1h 57mn

Bit rate mode : Constant

Bit rate : 640 Kbps

Channel(s) : 6 channels

Channel positions : Front: L C R , Surround: L R , LFE

Sampling rate : 48.0 KHz

Stream size : 538 MiB (23%)

Language : Thai



Audio #2

ID : 3

Format : AC-3

Format/Info : Audio Coding 3

Codec ID : A_AC3

Duration : 1h 57mn

Bit rate mode : Constant

Bit rate : 640 Kbps

Channel(s) : 6 channels

Channel positions : Front: L C R , Surround: L R , LFE

Sampling rate : 48.0 KHz

Stream size : 538 MiB (23%)



Text

ID : 4

Format : VobSub

Codec ID : S_VOBSUB

Codec ID/Info : The same subtitle format used on DVDs

Language : Thai







================================================== =============



*** กรุณาอ่านก่อน ***



แนะนำให้ใช้โปแกรม Media Player Classic เปิด

เลือกเสียงโดยเข้าเมนู Navigate - - > Audio Language





Eagle Eye (2008) 720p

ทำจากไฟล์ต้นฉบับ 1080p

มีเสียงไทย 5.1 และเสียงอังกฤษ 5.1



==================================================
-:- ถูกใจให้ Point -:-
มอบคะแนนให้ไฟล์นี้ :

ถูกใจได้รับคะแนนรวมแล้ว : 8 แต้ม

ให้คะแนนถูกใจโดย :


muoil001, PHUM, davic, HariCeldon, aekwirat, canto1992, koaebacon, malenonburi,
หากไฟล์นี้ถูกใจ คุณสามารถ กดปุ่ม "ถูกใจโหวตให้" เพื่อให้แต้มรางวัลแก่ผู้อับโหลด [รายละเอียดเพิ่มเติม]

-:- Thanks By -:-

-:- Owner -:-

boykcc 

PM ไปหาเจ้าของไฟล์ ส่งข้อความถึงเจ้าของไฟล์

-:- หมวดหมู่ -:-

Hidef , Blue-Ray

Hidef , Blue-Ray

-:- Bonus -:-

Free 100% !! 



-:- Bookmark -:-

ทำ Bookmark ไฟล์นี้เก็บไว้

( ค่าบริการ Bookmark ไฟล์ละ 10 ริง )

-:- More Info -:-

อับโหลดเมื่อ : 2012-10-25 17:35:38

การเชื่อมต่อล่าสุด : 193d 18:03:52 นาทีที่ผ่านมา

แสดงข้อมูลแล้ว : 616 ครั้ง

ดาวน์โหลดไปแล้ว : 174 ครั้ง

ดาวน์โหลดเสร็จ : 99 ครั้ง

แจ้งลบ / ไฟล์เสีย / ผิดกฎ

รายชื่อผู้ที่กำลังอับโหลด  [แสดงข้อมูล]
รายชื่อผู้ที่กำลังดาวน์โหลด  [แสดงข้อมูล]
รายชื่อผู้ที่ดาวน์โหลดสำเร็จแล้ว  [แสดงข้อมูล]
รายชื่อผู้ที่ยังดาวน์โหลดไม่สำเร็จ  [แสดงข้อมูล]

No comments yet

Add a comment


จุดประสงค์สำหรับการทำเว็บไซต์แห่งนี้ไม่ได้ทำเพื่อการค้า หรือการพานิชย์หรือสแวงหาผลกำไรใดๆทั้งสิ้น แต่จัดทำขึ้นเป็นเว็บไซต์สำหรับพูดคุยเรื่องหนังภาพยนต์ ข่าวสาร และเทคโนโลยี ต่างๆ หรือแลกเปลี่ยนข้อมูลต่างๆระหว่างสมาชิกด้วยกันเพื่อการศึกษา หรือแนะนำติชม รวมถึงการแสดงความเห็นต่อผลงานสร้างสรรค์ต่างๆ และเน้นเพื่อใช้ประโยชน์สำหรับความบันเทิงส่วนบุคคลภายในที่พักอาศัยเท่านั้น ห้ามิให้นำไปจำหน่ายเพื่อการพานิช โดยยึดหลักตามประมวลกฎหมาย พ.ร.บ. ลิขสิทธิ์ พ.ศ. 2537 มาตราที่ 32 และ 35 ในส่วนที่ 6 ข้อยกเว้นการละเมิดลิขสิทธิ์ ดังนั้น เว็บไซต์แห่งนี้ www.inwdrama.com ไม่สามารถรับผิดชอบต่อข้อความ หรือข้อมูลใดๆที่สมาชิกเป็นผู้โพสขึ้นมาได้ ซึ่งสมาชิกได้เห็นชอบและยอมรับในข้อตกลงก่อนการสมัครเข้าใช้งานเรียบร้อยแล้ว สมาชิกต้องทราบดีว่าจะไม่ใช้เว็บไซต์แห่งนี้เป็นแหล่งแจกจ่ายสิ่งผิดกฎหมาย โดยเฉพาะสื่อลามกอนาจาร หรือสื่อละเมิดลิขสิทธิ์ต่างๆ ข้อมูลที่ปรากฎอยู่บนเว็บไซต์ www.inwdrama.com เป็นเพียงแหล่งเชื่อมโยงไปยังข้อมูลจากสมาชิกเท่านั้น โดยไม่มีข้อมูลต้นฉบับใดๆจัดเก็บอยู่บนเซิร์ฟเวอร์ หรือ ตัวเว็บไซต์เลย และข้อมูลต่างๆที่เผยแพร่ภายในเว็บไซต์จะต้องได้รับความยินยอม หรือเห็นชอบจากเจ้าของลิขสิทธิ์แล้วเท่านั้น
ทำงานหนัก: - สร้างหน้านี้ใช้เวลา: 0.022 วินาที # คิวงาน: 0 คิว