Թᷧ {ºѵ÷ѹ} | Upload Ratio {ºѵ÷ѹ} | ѤVIP Seed2ҨҡŴշء {ºѵ÷ѹ} | ԨҤẺѤ VIP ҹҤ {update 24 ..}

෾  
  Ъѹ : 2014-04-16 : Դ X2 Ѻ user VIP x4 ء ֧͹¹                  2014-03-02 : ˹Ңͧµ ù任µ ẹ ѹ                  2014-03-02 :  Utorrent 3 ջѭ finding reers ¹ 1 2                  
 : й : 纽ҡٻ

Ӣ-[Hi-Def][Mini-HD] National Treasure : Collection (2004 , 2007) ~ ԺѵԡʹҢѾ / ѹ֡شͺš [720p.AC3. - [H.Q.Box Set] - Mini-hidef - AUDIO : English AC-3 , Thai AC-3 / SUB : English , Thai]
* ª¡ѹʴԴ, Thanks, ǵ ҧѧ繡âͺسͼһ
* ʹǹŴ稡سҡش㹷ѹ ѹҹشҷ ...

ͤڤ ҵ عڤ : 觷 觷ա

Download This
[ Download as Zip ]
Ӣ-[Hi-Def][Mini-HD] National Treasure : Collection (2004 , 2007) ~ ԺѵԡʹҢѾ / ѹ֡شͺš [720p.AC3. - [H.Q.Box Set] - Mini-hidef - AUDIO : English AC-3 , Thai AC-3 / SUB : English , Thai]

Ҵ : 7.23 GB (7,768,419,890 bytes)

ӹǹ : 2

Info Hash: ceab8c2e6b1683db7b6a8e8133177fd7
Rating ..!!

Rating: 5.0/5 (3 votes cast)


ҡöŴ Torrent · torrent is not valid ӡŴẺ zip ҹҧ download ᵡ ᷹  Ẻٻ

þɳὧ ss ٻɳǡѺ ˹ѧա¹ɳ䫵 ҹ áѺ 10,000 ԧ Staff PM

 ͻͧѹѭҷҨԴ鹡ѺŴ ˹ѧ,˹ѧ Ŵ Finding Peer 㹡 Download ҹ 蹹 ҹ uTorrent uTorrent \uTorrent" BitComet 0.70

-:- ´ -:-





National Treasure : Collection ~ ԺѵԡʹҢѾ / ѹ֡شͺš



***********************************************************************







National Treasure (2004) ~ Ժѵԡʹ ҢѾشͺš



/Type :

Action/Adventure



ѡʴ/Actors :

- Nicolas Cage

- Jon Voight

- Harvey Keitel

- Diane Kruger

- Sean Bean



ӡѺ/Directors :

- Jon Turteltaub



´ͧ/Synopsis

ŧҹҡӹ¡ҧ Pirates Of ThefCaribbean Ҿ¹礪蹼¿ѡشѹ ʴ न ʵҢͧҧʡ ѡʴ ǡҡѺͿ硵зس蹵ҵ ͧǢͧѡѵ ѧѺѵ㹵ӹҹ.(न)..ǺȹҨҡѵҳҴ¡ѹ ѹᷧҢѾҡ͹ ǡѹҡ١Ҩҡѵټ˴ѧͺͧѵԹ繢ͧͧ Ѵ蹴¡ҷشѹ .ȹ觢Ѿзسз֡ Ѻʹء˭þҴ



Format : Matroska

File size : 3.77 GiB

Duration : 2h 11mn

Overall bit rate : 4 120 Kbps

Movie name : National Treasure (2004)

Encoded date : UTC 2012-01-29 11:39:41

Writing application : mkvmerge v3.4.0 ( Rapunzel ) built on May 15 2010 09:38:20

Writing library : libebml v0.8.0 + libmatroska v0.9.0



Video

ID : 1

Format : AVC

Format/Info : Advanced Video Codec

Format profile : [email protected]

Format settings , CABAC : Yes

Format settings , ReFrames : 3 frames

Format settings , GOP : M=1 , N=48

Muxing mode : Container profile=[email protected]

Codec ID : V_MPEG4/ISO/AVC

Duration : 2h 11mn

Bit rate : 3 344 Kbps

Width : 1 280 pixels

Height : 534 pixels

Display aspect ratio : 2.35:1

Frame rate : 23.976 fps

Color space : YUV

Chroma subsampling : 4:2:0

Bit depth : 8 bits

Scan type : Progressive

Bits/(Pixel*Frame) : 0.204

Stream size : 2.99 GiB (79%)

Writing library : x264 core 114 r1924 08d04a4

Encoding settings : cabac=1 / ref=3 / deblock=1:0:0 / analyse=0x3:0x133 / me=tesa / subme=10 / psy=1 / psy_

rd=1.00:0.00 / mixed_ref=1 / me_range=16 / chroma_me=1 / trellis=2 / 8x8dct=1 / cqm=0 / deadzone=21 , 11 / fast_pskip

=1 / chroma_qp_offset=-2 / threads=9 / sliced_threads=0 / nr=0 / decimate=1 / interlaced=0 / constrained_intra=0 /

bframes=3 / b_pyramid=0 / b_adapt=2 / b_bias=0 / direct=1 / weightb=1 / open_gop=0 / weightp=2 / keyint=240 /

keyint_min=24 / scenecut=40 / intra_refresh=0 / rc_lookahead=40 / rc=2pass / mbtree=1 / bitrate=3344 / ratetol=1.0

qcomp=0.60 / qpmin=0 / qpmax=69 / qpstep=4 / cplxblur=20.0 / qblur=0.5 / vbv_maxrate=25000 / vbv_bufsize=

25000 / nal_hrd=vbr / ip_ratio=1.40 / aq=1:1.00



Audio #1

ID : 2

Format : AC-3

Format/Info : Audio Coding 3

Mode extension : CM (complete main)

Codec ID : A_AC3

Duration : 2h 11mn

Bit rate mode : Constant

Bit rate : 384 Kbps

Channel(s) : 6 channels

Channel positions : Front: L C R , Side: L R , LFE

Sampling rate : 48.0 KHz

Stream size : 360 MiB (9%)

Language : Thai



Audio #2

ID : 3

Format : AC-3

Format/Info : Audio Coding 3

Mode extension : CM (complete main)

Codec ID : A_AC3

Duration : 2h 11mn

Bit rate mode : Constant

Bit rate : 384 Kbps

Channel(s) : 6 channels

Channel positions : Front: L C R , Side: L R , LFE

Sampling rate : 48.0 KHz

Stream size : 360 MiB (9%)

Language : English



Text #1

ID : 4

Format : VobSub

Codec ID : S_VOBSUB

Codec ID/Info : The same subtitle format used on DVDs

Title : Thai [1080p]

Language : Thai



Text #2

ID : 5

Format : VobSub

Codec ID : S_VOBSUB

Codec ID/Info : The same subtitle format used on DVDs

Title : Eng [1080p]

Language : English



SS







---------------------------------------------------------------------------------------------------







National Treasure 2: Book Of Secrets (2007) ~ Ժѵԡʹ Һѹ֡شͺš



/Type :

Action/Adventure

Suspense Mystery

Thriller



ѡʴ/Actors :

- Nicolas Cage

- Jon Voight

- Harvey Keitel

- Diane Kruger

- Sean Bean



ӡѺ/Directors :

- Jon Turteltaub



´ͧ/Synopsis

Ҥͧ͢Ҿ¹礪شѹ National Treasure 㹤駹 ູ ࡷ.( न).ͧ͡ԹҧͤҢѾ.»ȹ§Сд˹˹ҷ仨ҡͧ ٸ Ǵູ֧ͧ繼͡äͺѧѺ Թ §ࡷҹ鹷ЪźҧŷԹͧС.٨طͧþ



Format : Matroska

File size : 3.77 GiB

Duration : 2h 11mn

Overall bit rate : 4 120 Kbps

Movie name : National Treasure (2004)

Encoded date : UTC 2012-01-29 11:39:41

Writing application : mkvmerge v3.4.0 ( Rapunzel ) built on May 15 2010 09:38:20

Writing library : libebml v0.8.0 + libmatroska v0.9.0



Video

ID : 1

Format : AVC

Format/Info : Advanced Video Codec

Format profile : [email protected]

Format settings , CABAC : Yes

Format settings , ReFrames : 3 frames

Format settings , GOP : M=1 , N=48

Muxing mode : Container profile=[email protected]

Codec ID : V_MPEG4/ISO/AVC

Duration : 2h 11mn

Bit rate : 3 344 Kbps

Width : 1 280 pixels

Height : 534 pixels

Display aspect ratio : 2.35:1

Frame rate : 23.976 fps

Color space : YUV

Chroma subsampling : 4:2:0

Bit depth : 8 bits

Scan type : Progressive

Bits/(Pixel*Frame) : 0.204

Stream size : 2.99 GiB (79%)

Writing library : x264 core 114 r1924 08d04a4

Encoding settings : cabac=1 / ref=3 / deblock=1:0:0 / analyse=0x3:0x133 / me=tesa / subme=10 / psy=1 / psy_

rd=1.00:0.00 / mixed_ref=1 / me_range=16 / chroma_me=1 / trellis=2 / 8x8dct=1 / cqm=0 / deadzone=21 , 11 / fast_pskip

=1 / chroma_qp_offset=-2 / threads=9 / sliced_threads=0 / nr=0 / decimate=1 / interlaced=0 / constrained_intra=0 /

bframes=3 / b_pyramid=0 / b_adapt=2 / b_bias=0 / direct=1 / weightb=1 / open_gop=0 / weightp=2 / keyint=240 /

keyint_min=24 / scenecut=40 / intra_refresh=0 / rc_lookahead=40 / rc=2pass / mbtree=1 / bitrate=3344 / ratetol=1.0 /

qcomp=0.60 / qpmin=0 / qpmax=69 / qpstep=4 / cplxblur=20.0 / qblur=0.5 / vbv_maxrate=25000 / vbv_bufsize=

25000 / nal_hrd=vbr / ip_ratio=1.40 / aq=1:1.00



Audio #1

ID : 2

Format : AC-3

Format/Info : Audio Coding 3

Mode extension : CM (complete main)

Codec ID : A_AC3

Duration : 2h 11mn

Bit rate mode : Constant

Bit rate : 384 Kbps

Channel(s) : 6 channels

Channel positions : Front: L C R , Side: L R , LFE

Sampling rate : 48.0 KHz

Stream size : 360 MiB (9%)

Language : Thai



Audio #2

ID : 3

Format : AC-3

Format/Info : Audio Coding 3

Mode extension : CM (complete main)

Codec ID : A_AC3

Duration : 2h 11mn

Bit rate mode : Constant

Bit rate : 384 Kbps

Channel(s) : 6 channels

Channel positions : Front: L C R , Side: L R , LFE

Sampling rate : 48.0 KHz

Stream size : 360 MiB (9%)

Language : English



Text #1

ID : 4

Format : VobSub

Codec ID : S_VOBSUB

Codec ID/Info : The same subtitle format used on DVDs

Title : Thai [1080p]

Language : Thai



Text #2

ID : 5

Format : VobSub

Codec ID : S_VOBSUB

Codec ID/Info : The same subtitle format used on DVDs

Title : Eng [1080p]

Language : English



SS









* ҹѡԴ͹ LOAD Ѻ *

[Mini-hidef] National Treasure 2004-2007 [H.Q-Box set] 720p-CtHts

-Ӣ2ҤӨҡBr-master ѹâ͵ͧ÷ͧ.......(ͺ繡ǹ.....ҹ㴪ͺ͹ѹԭ¤Ѻ)

-Rip-by komkam-CtHts.....



Shared by society CtHts [Coming together.Happy to share.]



ôԵ

Coming together.Happy to share.





* * * * * * * * * * * * * * * * * * * * * * * * * * * * * * * * * * * * * * * * * * * * *



仨˹͡þҳԪ





ʹѺʹع ҹѧ觡觻ѹ

ôԵҹ CtHts -] Coming together.Happy to share.

[nfsphuket , rimudi , darkvador , JFC , netboy , darnphuket / rakkhunna , GG44 , komkam , maxbomb , bOyziOO , DRAGONFAT , vzio , freeandfree , AnfieldRoad , Champ14Za , utd , KingMovie , yorukung , IINOYII , Legendrider , kiatplk , supanyap , jukjunjao , khampeeaew , sakworbit , LiverPoolS , stang , boyinwdrama , panad , jeab200 , mozed , dnxy , EarthStar , xmen9 , apollo14 , ~PORSCHE~ , NongZEZA~ and vdoboy]
-:- ١ Point -:-
ҡ١ سö "١ǵ" ҧѺŴ [´]

-:- Thanks By -:-

-:- Owner -:-

ᴹԵ Thank King!

PM Ңͧ 觢֧ͤҢͧ

-:- Ǵ -:-

Hidef , Blue-Ray

Hidef , Blue-Ray

-:- Bonus -:-

Free 100% !! 



-:- Bookmark -:-

Bookmark

( Һԡ Bookmark 10 ԧ )

-:- More Info -:-

ѺŴ : 2012-06-13 13:59:00

ش : 516d 03:41:42 ҷշҹ

ʴ : 869

ǹŴ : 263

ǹŴ : 107

ź / / Դ

ª ( 2 ¡ )  [ʴ]
ªͼѧѺŴ  [ʴ]
ªͼѧǹŴ  [ʴ]
ªͼǹŴ  [ʴ]
ªͼѧǹŴ  [ʴ]

Add a comment

<< ͹Ѻ      Ѵ >>
1 - 3

#117138 by NuZaa (ʹ¹ 1) at 2012-06-13 14:23:51

ͺسѺ  

#117170 by gap99 (ѭ) at 2012-06-13 20:56:27

ͺسѺᴹ ⴹѺ ⴹ......

#117182 by Aiyara (ʹ¹) at 2012-06-13 22:08:57

ͺسѺҹᴹ ѧ˹ѧʹء Mini HD ʹ¤Ѻ  

1 - 3
<< ͹Ѻ      Ѵ >>

Add a comment


شʧѺ÷䫵觹͡ä ͡þҹԪǧҼš ѴӢ䫵Ѻٴͧ˹ѧҾ¹ ෤ ҧ š¹ŵҧҧҪԡ¡ѹ֡͡ йӵԪ ֧ʴ繵ͼŧҹҧäҧ ªѺѹԧǹؤ㹷ѡҹ 仨˹͡þҹԪ ִѡš ... ԢԷ .. 2537 ҵҷ 32 35 ǹ 6 ¡鹡ԴԢԷ ѧ 䫵觹 www.inwdrama.com öѺԴͺͤ͢ ͢Ҫԡ繼ʢ Ҫԡ繪ͺѺ㹢͵ŧ͹Ѥҹº ҪԡͧҺҨ䫵觹ᨡ觼Դ ੾͹Ҩ ԴԢԷҧ ŷҡ躹䫵 www.inwdrama.com §§ѧŨҡҪԡҹ բŵ鹩ѺѴ躹 䫵 Тŵҧ䫵еͧѺԹ 繪ͺҡҢͧԢԷҹ
ӧҹ˹ѡ: - ҧ˹ҹ: 0.023 Թҷ # ǧҹ: 0