เติมเงินเพื่อแทงบอล และ เล่นเกมส์ {ด้วยบัตรทรูมันนี่} | เพิ่มค่า Upload และ Ratio {ด้วยบัตรทรูมันนี่} | สมัครVIP ได้Seedเป็น2เท่าจากปกติและโหลดฟรีทุกไฟล์ {ด้วยบัตรทรูมันนี่} | บริจาคเว็บแบบสมัคร VIP ผ่านธนาคาร {update ใน 24 ช.ม.}

เทพดราม่า  
10 กระทู้ล่าสุด !!
  ประชาสัมพันธ์ : 2014-04-16 : เปิดฟรี X2 สำหรับ user ปกติ VIP x4 ทุกไฟล์ ถึงสิ้นเดือนเมษายน                  2014-03-02 : ไฟล์ไหนที่เจ้าของไฟล์ห้ามปล่อยต่อ ใครนำไปปล่อยต่อ แบน ทันที                  2014-03-02 : ใครใช้ Utorrent เวอร์ชั่น 3 แล้วมีปัญหา finding reers ให้เปลี่ยนมาใช้ เวอร์ชั่น 1 หรือ 2                  
 : เว็บแนะนำ : เว็บฝากรูป

[DVD Rip] บันทึกการแสดงสด วงดนตรี แฟมิลี่มิวสิค งานบวช จ.อ่างทอง
* ร่วมด้วยช่วยกันแสดงความคิดเห็น, กด Thanks, ให้โหวต เพื่อสร้างกำลังใจและเป็นการขอบคุณต่อผู้นำไฟล์มาปล่อย
* เมื่อดาวน์โหลดเสร็จกรุณาอย่ากดหยุดในทันที ร่วมกันปล่อยไฟล์ให้นานที่สุดเท่าที่ทำได้ ...

อคฺคสฺส ทาตา ลภเต ปุนคฺคํ : ผู้ให้สิ่งที่เลิศ ย่อมได้สิ่งที่เลิศอีก

Download This
[ Download as Zip ]
[DVD Rip] บันทึกการแสดงสด วงดนตรี แฟมิลี่มิวสิค งานบวช จ.อ่างทอง

ขนาดไฟล์ : 1.83 GB (1,969,550,492 bytes)

จำนวนไฟล์ : 2 ไฟล์

Info Hash: bcfee4b4a36391b4a591730344cc888a
Rating ..!!

Rating: 4.0/5 (3 votes cast)


หากไม่สามารถโหลด Torrent ได้ โดยที่ขึ้นว่า torrent is not valid ให้ทำการโหลดแบบ zip ที่ด้านล่างปุ่ม download สีเขียวแล้วไป แตกไฟล์ แทน  แบบรูปนี้

ใครพบเจอโฆษณาแฝงในไฟล์ เช่น ss เป็นรูปโฆษณาไม่เกี่ยวกับไฟล์ หรือ ตัวหนังมีการเขียนโฆษณาเว็บไซต์ แจ้งได้ที่ทีมงาน คนแรกที่แจ้งรับ 10,000 ริง Staff PM

 เพื่อป้องกันปัญหาที่อาจเกิดขึ้นกับการโหลด หนังใหม่,หนังไทยเช่น โหลดไม่ได้ แล้ว ขึ้น Finding Peer ในการ Download ขอให้ท่านใช้โปรแกรม เวอร์ชั่นนี้ เท่านั้น uTorrent uTorrent หรือ \uTorrent" BitComet 0.70

-:- รายละเอียดไฟล์ -:-

ลิ้งค์/รูปประกอบ: http://upload.armuay.com/img/2012-02-23/09-06-48_0.305672.jpg






[DVD Rip] บันทึกการแสดงสด วงดนตรี แฟมิลี่มิวสิค งานบวช จ.อ่างทอง



Info



General

Complete name                    : D:Finishวงแฟมิลี่เล่นที่อ่างทองแฟมิลี่ rip D1.mpg

Format                           : MPEG-PS

File size                        : 920 MiB

Duration                         : 1h 32mn

Overall bit rate                 : 1 394 Kbps



Video

ID                               : 224 (0xE0)

Format                           : MPEG Video

Format version                   : Version 1

Format settings  ,   BVOP            : Yes

Format settings  ,   Matrix          : Default

Duration                         : 1h 32mn

Bit rate                         : 1 143 Kbps

Maximum bit rate                 : 1 116 Kbps

Width                            : 352 pixels

Height                           : 288 pixels

Display aspect ratio             : 4:3

Frame rate                       : 25.000 fps

Standard                         : PAL

Color space                      : YUV

Bit depth                        : 8 bits

Scan type                        : Progressive

Compression mode                 : Lossy

Bits/(Pixel*Frame)               : 0.451

Stream size                      : 754 MiB (82%)



Audio

ID                               : 192 (0xC0)

Format                           : MPEG Audio

Format version                   : Version 1

Format profile                   : Layer 2

Duration                         : 1h 32mn

Bit rate mode                    : Constant

Bit rate                         : 224 Kbps

Channel(s)                       : 2 channels

Sampling rate                    : 44.1 KHz

Compression mode                 : Lossy

Delay relative to video          : -14ms

Stream size                      : 148 MiB (16%)











Credit : เว็บเพื่อนบ้านใจดี

ห้ามนำไปจำหน่ายเพื่อการพาณิชย์




1. ไฟล์ประเภท VCD 1-2 GB ปล่อยไฟล์ประมาณ 2-3 วัน

2. ไฟล์ประเภท DVD 3-4 GB ปล่อยไฟล์ประมาณ  6-7 วัน

3.อยากได้งานใหนรีบโหลด ไม่รับ Reseed งานที่ผมไม่ได้ปล่อยแล้วโปรดตรวจก่อนโหลด

4.งานอยู่โคโลหากชำรุด,เสียหาย,ไม่สมบูรณ์ ผมไม่สามารถตรวจสอบได้ ผิดพลาดมาขออภัย


-:- ถูกใจให้ Point -:-
มอบคะแนนให้ไฟล์นี้ :

ถูกใจได้รับคะแนนรวมแล้ว : 11 แต้ม

ให้คะแนนถูกใจโดย :


intruder สมาชิกสนับสนุนเว็บไซต์, somma, nareshv59, pakkapon, asdfghjkl, djkai, nu2525, sit2552, songkab, bcr2, peamas,
หากไฟล์นี้ถูกใจ คุณสามารถ กดปุ่ม "ถูกใจโหวตให้" เพื่อให้แต้มรางวัลแก่ผู้อับโหลด [รายละเอียดเพิ่มเติม]

-:- Thanks By -:-

-:- Owner -:-

9 Thank King!User Icon

PM ไปหาเจ้าของไฟล์ ส่งข้อความถึงเจ้าของไฟล์

-:- หมวดหมู่ -:-

คอนเสิร์ต , คาราโอเกะ

คอนเสิร์ต , คาราโอเกะ

-:- Bonus -:-

Free 50% !! 



-:- Bookmark -:-

ทำ Bookmark ไฟล์นี้เก็บไว้

( ค่าบริการ Bookmark ไฟล์ละ 10 ริง )

-:- More Info -:-

อับโหลดเมื่อ : 2012-02-23 19:02:54

การเชื่อมต่อล่าสุด : 570d 14:36:38 นาทีที่ผ่านมา

แสดงข้อมูลแล้ว : 1,218 ครั้ง

ดาวน์โหลดไปแล้ว : 192 ครั้ง

ดาวน์โหลดเสร็จ : 71 ครั้ง

แจ้งลบ / ไฟล์เสีย / ผิดกฎ

รายชื่อไฟล์ ( 2 รายการ )  [แสดงข้อมูล]
รายชื่อผู้ที่กำลังอับโหลด  [แสดงข้อมูล]
รายชื่อผู้ที่กำลังดาวน์โหลด  [แสดงข้อมูล]
รายชื่อผู้ที่ดาวน์โหลดสำเร็จแล้ว  [แสดงข้อมูล]
รายชื่อผู้ที่ยังดาวน์โหลดไม่สำเร็จ  [แสดงข้อมูล]

Add a comment

<< ย้อนกลับ      ถัดไป >>
1 - 1

#106524 by muangmai (ทารก) at 2012-02-23 23:06:40

Thank You

1 - 1
<< ย้อนกลับ      ถัดไป >>

Add a comment


จุดประสงค์สำหรับการทำเว็บไซต์แห่งนี้ไม่ได้ทำเพื่อการค้า หรือการพานิชย์หรือสแวงหาผลกำไรใดๆทั้งสิ้น แต่จัดทำขึ้นเป็นเว็บไซต์สำหรับพูดคุยเรื่องหนังภาพยนต์ ข่าวสาร และเทคโนโลยี ต่างๆ หรือแลกเปลี่ยนข้อมูลต่างๆระหว่างสมาชิกด้วยกันเพื่อการศึกษา หรือแนะนำติชม รวมถึงการแสดงความเห็นต่อผลงานสร้างสรรค์ต่างๆ และเน้นเพื่อใช้ประโยชน์สำหรับความบันเทิงส่วนบุคคลภายในที่พักอาศัยเท่านั้น ห้ามิให้นำไปจำหน่ายเพื่อการพานิช โดยยึดหลักตามประมวลกฎหมาย พ.ร.บ. ลิขสิทธิ์ พ.ศ. 2537 มาตราที่ 32 และ 35 ในส่วนที่ 6 ข้อยกเว้นการละเมิดลิขสิทธิ์ ดังนั้น เว็บไซต์แห่งนี้ www.inwdrama.com ไม่สามารถรับผิดชอบต่อข้อความ หรือข้อมูลใดๆที่สมาชิกเป็นผู้โพสขึ้นมาได้ ซึ่งสมาชิกได้เห็นชอบและยอมรับในข้อตกลงก่อนการสมัครเข้าใช้งานเรียบร้อยแล้ว สมาชิกต้องทราบดีว่าจะไม่ใช้เว็บไซต์แห่งนี้เป็นแหล่งแจกจ่ายสิ่งผิดกฎหมาย โดยเฉพาะสื่อลามกอนาจาร หรือสื่อละเมิดลิขสิทธิ์ต่างๆ ข้อมูลที่ปรากฎอยู่บนเว็บไซต์ www.inwdrama.com เป็นเพียงแหล่งเชื่อมโยงไปยังข้อมูลจากสมาชิกเท่านั้น โดยไม่มีข้อมูลต้นฉบับใดๆจัดเก็บอยู่บนเซิร์ฟเวอร์ หรือ ตัวเว็บไซต์เลย และข้อมูลต่างๆที่เผยแพร่ภายในเว็บไซต์จะต้องได้รับความยินยอม หรือเห็นชอบจากเจ้าของลิขสิทธิ์แล้วเท่านั้น
ทำงานหนัก: - สร้างหน้านี้ใช้เวลา: 0.011 วินาที # คิวงาน: 0 คิว