Թᷧ {ºѵ÷ѹ} | Upload Ratio {ºѵ÷ѹ} | ѤVIP Seed2ҨҡŴշء {ºѵ÷ѹ} | ԨҤẺѤ VIP ҹҤ {update 24 ..}

෾  
  Ъѹ : 2014-04-16 : Դ X2 Ѻ user VIP x4 ء ֧͹¹                  2014-03-02 : ˹Ңͧµ ù任µ ẹ ѹ                  2014-03-02 :  Utorrent 3 ջѭ finding reers ¹ 1 2                  
 : й : 纽ҡٻ

[˹ѧ]-Iron Man 3 2013 720p R6 x264 AC3 / һ 3 [ §: ç ][§¨繺ҧǧ]
* ª¡ѹʴԴ, Thanks, ǵ ҧѧ繡âͺسͼһ
* ʹǹŴ稡سҡش㹷ѹ ѹҹشҷ ...

ͤڤ ҵ عڤ : 觷 觷ա

Download This
[ Download as Zip ]
[˹ѧ]-Iron Man 3 2013 720p R6 x264 AC3 / һ 3 [ §: ç ][§¨繺ҧǧ]

Ҵ : 2.10 GB (2,260,050,804 bytes)

ӹǹ : 1

Info Hash: 697f072a4ea6b21090c5036bcaf961c5
Rating ..!!

Rating: 4.5/5 (2 votes cast)


ҡöŴ Torrent · torrent is not valid ӡŴẺ zip ҹҧ download ᵡ ᷹  Ẻٻ

þɳὧ ss ٻɳǡѺ ˹ѧա¹ɳ䫵 ҹ áѺ 10,000 ԧ Staff PM

 ͻͧѹѭҷҨԴ鹡ѺŴ ˹ѧ,˹ѧ Ŵ Finding Peer 㹡 Download ҹ 蹹 ҹ uTorrent uTorrent \uTorrent" BitComet 0.70

-:- ´ -:-





ͧ



    "͹ 3" ⷹ ʵ/͹ Ѩйѡصˡش¹ ҧͧѵټѡͺࢵͧ˴

     ʵ줾 šǹǢͧ١ŧͧ͢ѵҹ Ҩ֧͡ҤͧѺԴͺѺ˵ءóԴẺԡ蹴Թ 㹷ءҧǢͧԹҧ駹 ͡÷ͺ秢ͧ ѧ ʵҵʹػóҧ ͧͧ 觷觾㹵͹ͤ繹ѡдɰѭҵҳ ͨлͧѡ

     ءա ʵ줨֧龺ѺӵͺͧӶ͡͹µʹ ҧشͪشҧѹ?









Quote:

Video

ID                                       : 1

Format                                   : AVC

Format/Info                              : Advanced Video Codec

Format profile                           : [email protected]

Format settings, CABAC                   : Yes

Format settings, ReFrames                : 4 frames

Codec ID                                 : V_MPEG4/ISO/AVC

Duration                                 : 2h 13mn

Bit rate                                 : 2 050 Kbps

Width                                    : 1 280 pixels

Height                                   : 548 pixels

Display aspect ratio                     : 2.35:1

Frame rate mode                          : Constant

Frame rate                               : 29.014 fps

Original frame rate                      : 29.000 fps

Color space                              : YUV

Chroma subsampling                       : 4:2:0

Bit depth                                : 8 bits

Scan type                                : Progressive

Bits/(Pixel*Frame)                       : 0.101

Stream size                              : 1.88 GiB (90%)

Writing library                          : x264 core 125 r2200bm 999b753

Encoding settings                        : cabac=1 / ref=3 / deblock=1:-1:-1 / analyse=0x3:0x113 / me=hex / subme=7 / psy=1 / psy_rd=1.00:0.15 / mixed_ref=1 / me_range=16 / chroma_me=1 / trellis=1 / 8x8dct=1 / cqm=0 / deadzone=21,11 / fast_pskip=1 / chroma_qp_offset=-3 / threads=3 / lookahead_threads=1 / sliced_threads=0 / nr=0 / decimate=1 / interlaced=0 / bluray_compat=0 / constrained_intra=0 / bframes=3 / b_pyramid=2 / b_adapt=1 / b_bias=0 / direct=1 / weightb=1 / open_gop=0 / weightp=2 / keyint=250 / keyint_min=25 / scenecut=40 / intra_refresh=0 / rc_lookahead=40 / rc=abr / mbtree=1 / bitrate=2050 / ratetol=1.0 / qcomp=0.60 / qpmin=0 / qpmax=69 / qpstep=4 / ip_ratio=1.40 / aq=1:1.00

Default                                  : Yes

Forced                                   : No



Audio

ID                                       : 2

Format                                   : AC-3

Format/Info                              : Audio Coding 3

Mode extension                           : CM (complete main)

Format settings, Endianness              : Big

Codec ID                                 : A_AC3

Duration                                 : 2h 13mn

Bit rate mode                            : Constant

Bit rate                                 : 192 Kbps

Channel(s)                               : 6 channels

Channel positions                        : Front: L C R, Side: L R, LFE

Sampling rate                            : 44.1 KHz

Bit depth                                : 16 bits

Compression mode                         : Lossy

Stream size                              : 183 MiB (8%)

Default                                  : Yes

Forced                                   : No















-:- ١ Point -:-
ͺṹ :

١Ѻṹ : 2

ṹ١ :


hadonhonda, kgb,
ҡ١ سö "١ǵ" ҧѺŴ [´]

-:- Thanks By -:-

-:- Owner -:-

Encoding 

PM Ңͧ 觢֧ͤҢͧ

-:- Ǵ -:-

Not Master[V2D||Zoom]

Not Master[V2D||Zoom]

-:- Bonus -:-

Free 100% !! 



-:- Bookmark -:-

Bookmark

( Һԡ Bookmark 10 ԧ )

-:- More Info -:-

ѺŴ : 2013-05-11 16:57:38

ش : 161d 16:02:25 ҷշҹ

ʴ : 775

ǹŴ : 233

ǹŴ : 130

ź / / Դ

ªͼѧѺŴ  [ʴ]
ªͼѧǹŴ  [ʴ]
ªͼǹŴ  [ʴ]
ªͼѧǹŴ  [ʴ]

No comments yet

Add a comment


شʧѺ÷䫵觹͡ä ͡þҹԪǧҼš ѴӢ䫵Ѻٴͧ˹ѧҾ¹ ෤ ҧ š¹ŵҧҧҪԡ¡ѹ֡͡ йӵԪ ֧ʴ繵ͼŧҹҧäҧ ªѺѹԧǹؤ㹷ѡҹ 仨˹͡þҹԪ ִѡš ... ԢԷ .. 2537 ҵҷ 32 35 ǹ 6 ¡鹡ԴԢԷ ѧ 䫵觹 www.inwdrama.com öѺԴͺͤ͢ ͢Ҫԡ繼ʢ Ҫԡ繪ͺѺ㹢͵ŧ͹Ѥҹº ҪԡͧҺҨ䫵觹ᨡ觼Դ ੾͹Ҩ ԴԢԷҧ ŷҡ躹䫵 www.inwdrama.com §§ѧŨҡҪԡҹ բŵ鹩ѺѴ躹 䫵 Тŵҧ䫵еͧѺԹ 繪ͺҡҢͧԢԷҹ
ӧҹ˹ѡ: - ҧ˹ҹ: 0.014 Թҷ # ǧҹ: 0