เติมเงินเพื่อแทงบอล และ เล่นเกมส์ {ด้วยบัตรทรูมันนี่} | เพิ่มค่า Upload และ Ratio {ด้วยบัตรทรูมันนี่} | สมัครVIP ได้Seedเป็น2เท่าจากปกติและโหลดฟรีทุกไฟล์ {ด้วยบัตรทรูมันนี่} | บริจาคเว็บแบบสมัคร VIP ผ่านธนาคาร {update ใน 24 ช.ม.}

เทพดราม่า  
10 กระทู้ล่าสุด !!
  ประชาสัมพันธ์ : 2014-04-16 : เปิดฟรี X2 สำหรับ user ปกติ VIP x4 ทุกไฟล์ ถึงสิ้นเดือนเมษายน                  2014-03-02 : ไฟล์ไหนที่เจ้าของไฟล์ห้ามปล่อยต่อ ใครนำไปปล่อยต่อ แบน ทันที                  2014-03-02 : ใครใช้ Utorrent เวอร์ชั่น 3 แล้วมีปัญหา finding reers ให้เปลี่ยนมาใช้ เวอร์ชั่น 1 หรือ 2                  
 : เว็บแนะนำ : เว็บฝากรูป

บันทึกการแสดงสด อัสนี-วสันต์ ร่ำไร คอนเสิร์ต (2008) 720p [เสียง:ไทย AC3 5.1-2.1]+[Bonus Tracks] ดูข้างในก่อนโหลดครับ
* ร่วมด้วยช่วยกันแสดงความคิดเห็น, กด Thanks, ให้โหวต เพื่อสร้างกำลังใจและเป็นการขอบคุณต่อผู้นำไฟล์มาปล่อย
* เมื่อดาวน์โหลดเสร็จกรุณาอย่ากดหยุดในทันที ร่วมกันปล่อยไฟล์ให้นานที่สุดเท่าที่ทำได้ ...

อคฺคสฺส ทาตา ลภเต ปุนคฺคํ : ผู้ให้สิ่งที่เลิศ ย่อมได้สิ่งที่เลิศอีก

Download This
[ Download as Zip ]
บันทึกการแสดงสด อัสนี-วสันต์ ร่ำไร คอนเสิร์ต (2008) 720p [เสียง:ไทย AC3 5.1-2.1]+[Bonus Tracks] ดูข้างในก่อนโหลดครับ

ขนาดไฟล์ : 2.04 GB (2,187,397,386 bytes)

จำนวนไฟล์ : 2 ไฟล์

Info Hash: 9184bd13c93bdc2e58cf36cbd8b53aea
Rating ..!!

Rating: 4.0/5 (4 votes cast)


หากไม่สามารถโหลด Torrent ได้ โดยที่ขึ้นว่า torrent is not valid ให้ทำการโหลดแบบ zip ที่ด้านล่างปุ่ม download สีเขียวแล้วไป แตกไฟล์ แทน  แบบรูปนี้

ใครพบเจอโฆษณาแฝงในไฟล์ เช่น ss เป็นรูปโฆษณาไม่เกี่ยวกับไฟล์ หรือ ตัวหนังมีการเขียนโฆษณาเว็บไซต์ แจ้งได้ที่ทีมงาน คนแรกที่แจ้งรับ 10,000 ริง Staff PM

 เพื่อป้องกันปัญหาที่อาจเกิดขึ้นกับการโหลด หนังใหม่,หนังไทยเช่น โหลดไม่ได้ แล้ว ขึ้น Finding Peer ในการ Download ขอให้ท่านใช้โปรแกรม เวอร์ชั่นนี้ เท่านั้น uTorrent uTorrent หรือ \uTorrent" BitComet 0.70

-:- รายละเอียดไฟล์ -:-

ลิ้งค์/รูปประกอบ: http://upload.armuay.com/2013-03-04_05-06-58_0.040953.jpg
บันทึกการแสดงสด อัสนี-วสันต์ ร่ำไร คอนเสิร์ต (2008) 720p [เสียง:ไทย AC3 5.1-2.1]+[Bonus Tracks]  







Tracklist



01. Overtuer

02. ยินดีไม่มีปัญหา

03. ไม่เกี่ยวกัน

04. สุขใจ

05. เกี่ยวก้อย

06. เบื๊อก

07.วัวลืมตีน

08. แทนคำนั้น

09. หัวใจสะออน + สิทธฺของเธอ

10. อยากจะลืม

11. เธอปันใจ

12. Medley 1

บังอรเอาแต่นอน

I Love You

ตาอยู่

ทุกข์ไม่เว้นวันราชการ

ข้าวเย็น

13. หนึ่งมิตรชิดใกล้

14. ให้เธอ

15. ก็เคยสัญญา

16. สายล่อฟ้า

17. Drum Solo + Guitar Solo

18. พบกันครึ่งทาง

19. น้ำเอยน้ำใจ

20. เลยตามเลย

21. วณิพก

22. ชีวิตสัมพันธ์

23. ทรงพระเจริญ

24. ยินยอม

25. Medley 2

บังเอิญติดดิน

ลักไก่

ลูกผู้ชาย

บางอ้อ

กุ้มใจ

ยินดีไม่มีปัญหา

26. รักเธอเสมอ

27. ได้อย่างเสียอย่าง

28. ร่ำไร

Bonus tracks

1. กระดี่ได้น้ำ

2. กรุงเทพมหานคร

3. ลงเอย

4. รักไม่ยอมเปลี่ยนแปลง

5. ทำดีได้ดี

6. คนสุดท้าย



Info



Format                           : Matroska

Format version                   : Version 2

File size                        : 1.74 GiB

Duration                         : 2h 22mn

Overall bit rate                 : 1 739 Kbps

Encoded date                     : UTC 2013-02-25 08:40:23

Writing application              : mkvmerge v4.8.0 ( I Got The... ) built on May 24 2011 03:12:58

Writing library                  : libebml v1.2.0 + libmatroska v1.1.0



Video

ID                               : 1

Format                           : AVC

Format/Info                      : Advanced Video Codec

Format profile                   : [email protected]

Format settings, CABAC           : Yes

Format settings, ReFrames        : 10 frames

Codec ID                         : V_MPEG4/ISO/AVC

Duration                         : 2h 22mn

Bit rate                         : 1 300 Kbps

Width                            : 1 280 pixels

Height                           : 720 pixels

Display aspect ratio             : 16:9

Frame rate                       : 25.000 fps

Color space                      : YUV

Chroma subsampling               : 4:2:0

Bit depth                        : 8 bits

Scan type                        : Progressive

Bits/(Pixel*Frame)               : 0.056

Stream size                      : 1.25 GiB (72%)

Title                            : Assanee.Wasan.Ramrai.Concert.Full.720p.ac3

Writing library                  : x264 core 129 r2230 1cffe9f

Encoding settings                : cabac=1 / ref=10 / deblock=1:0:0 / analyse=0x3:0x113 / me=umh / subme=9 / psy=1 / psy_rd=1.00:0.00 / mixed_ref=1 / me_range=16 / chroma_me=1 / trellis=1 / 8x8dct=1 / cqm=0 / deadzone=21,11 / fast_pskip=1 / chroma_qp_offset=-2 / threads=6 / lookahead_threads=1 / sliced_threads=0 / nr=0 / decimate=1 / interlaced=0 / bluray_compat=0 / constrained_intra=0 / bframes=10 / b_pyramid=2 / b_adapt=1 / b_bias=0 / direct=1 / weightb=1 / open_gop=0 / weightp=2 / keyint=250 / keyint_min=25 / scenecut=40 / intra_refresh=0 / rc_lookahead=40 / rc=abr / mbtree=1 / bitrate=1300 / ratetol=1.0 / qcomp=0.60 / qpmin=0 / qpmax=69 / qpstep=4 / vbv_maxrate=300000 / vbv_bufsize=300000 / nal_hrd=none / ip_ratio=1.40 / aq=1:1.00

Language                         : Thai

Default                          : Yes

Forced                           : No



Audio #1

ID                               : 2

Format                           : AC-3

Format/Info                      : Audio Coding 3

Mode extension                   : CM (complete main)

Codec ID                         : A_AC3

Duration                         : 2h 22mn

Bit rate mode                    : Constant

Bit rate                         : 256 Kbps

Channel(s)                       : 6 channels

Channel positions                : Front: L C R, Side: L R, LFE

Sampling rate                    : 48.0 KHz

Bit depth                        : 16 bits

Compression mode                 : Lossy

Stream size                      : 262 MiB (15%)

Title                            : Thai 5.1

Language                         : Thai

Default                          : Yes

Forced                           : No



Audio #2

ID                               : 3

Format                           : AC-3

Format/Info                      : Audio Coding 3

Mode extension                   : CM (complete main)

Codec ID                         : A_AC3

Duration                         : 2h 22mn

Bit rate mode                    : Constant

Bit rate                         : 192 Kbps

Channel(s)                       : 2 channels

Channel positions                : Front: L R

Sampling rate                    : 48.0 KHz

Bit depth                        : 16 bits

Compression mode                 : Lossy

Stream size                      : 196 MiB (11%)

Title                            : Thai 2.1

Language                         : Thai

Default                          : No

Forced                           : No



SS:



                                  

Rip จาก DVD9

Ripped By tospond

ไฟล์มีปัญหาต้องขออภัยมา ณ ที่นี้ด้วยครับ



-:- ถูกใจให้ Point -:-
มอบคะแนนให้ไฟล์นี้ :

ถูกใจได้รับคะแนนรวมแล้ว : 17 แต้ม

ให้คะแนนถูกใจโดย :


prasitpps, canto1992, kung44, nickvios, pikbaa, bomwinamp, kanun, kruaud, mate007, BBvipPair, bebo, chanin111, dpratheep76, th123456789, phanu25, 3how, ratsamitat,
หากไฟล์นี้ถูกใจ คุณสามารถ กดปุ่ม "ถูกใจโหวตให้" เพื่อให้แต้มรางวัลแก่ผู้อับโหลด [รายละเอียดเพิ่มเติม]

-:- Thanks By -:-

-:- Owner -:-

แดนเนรมิต Thank King!

PM ไปหาเจ้าของไฟล์ ส่งข้อความถึงเจ้าของไฟล์

-:- หมวดหมู่ -:-

คอนเสิร์ต , คาราโอเกะ

คอนเสิร์ต , คาราโอเกะ

-:- Bonus -:-

Free 100% !! 



-:- Bookmark -:-

ทำ Bookmark ไฟล์นี้เก็บไว้

( ค่าบริการ Bookmark ไฟล์ละ 10 ริง )

-:- More Info -:-

อับโหลดเมื่อ : 2013-03-04 15:09:16

การเชื่อมต่อล่าสุด : 17:02 นาทีที่ผ่านมา

แสดงข้อมูลแล้ว : 957 ครั้ง

ดาวน์โหลดไปแล้ว : 335 ครั้ง

ดาวน์โหลดเสร็จ : 167 ครั้ง

แจ้งลบ / ไฟล์เสีย / ผิดกฎ

รายชื่อไฟล์ ( 2 รายการ )  [แสดงข้อมูล]
รายชื่อผู้ที่กำลังอับโหลด  [แสดงข้อมูล]
รายชื่อผู้ที่กำลังดาวน์โหลด  [แสดงข้อมูล]
รายชื่อผู้ที่ดาวน์โหลดสำเร็จแล้ว  [แสดงข้อมูล]
รายชื่อผู้ที่ยังดาวน์โหลดไม่สำเร็จ  [แสดงข้อมูล]

Add a comment

<< ย้อนกลับ      ถัดไป >>
1 - 1

#142151 by mymmyme (เซียนน้อย) at 2013-03-04 18:43:28

ขอบคุณครับ

1 - 1
<< ย้อนกลับ      ถัดไป >>

Add a comment


จุดประสงค์สำหรับการทำเว็บไซต์แห่งนี้ไม่ได้ทำเพื่อการค้า หรือการพานิชย์หรือสแวงหาผลกำไรใดๆทั้งสิ้น แต่จัดทำขึ้นเป็นเว็บไซต์สำหรับพูดคุยเรื่องหนังภาพยนต์ ข่าวสาร และเทคโนโลยี ต่างๆ หรือแลกเปลี่ยนข้อมูลต่างๆระหว่างสมาชิกด้วยกันเพื่อการศึกษา หรือแนะนำติชม รวมถึงการแสดงความเห็นต่อผลงานสร้างสรรค์ต่างๆ และเน้นเพื่อใช้ประโยชน์สำหรับความบันเทิงส่วนบุคคลภายในที่พักอาศัยเท่านั้น ห้ามิให้นำไปจำหน่ายเพื่อการพานิช โดยยึดหลักตามประมวลกฎหมาย พ.ร.บ. ลิขสิทธิ์ พ.ศ. 2537 มาตราที่ 32 และ 35 ในส่วนที่ 6 ข้อยกเว้นการละเมิดลิขสิทธิ์ ดังนั้น เว็บไซต์แห่งนี้ www.inwdrama.com ไม่สามารถรับผิดชอบต่อข้อความ หรือข้อมูลใดๆที่สมาชิกเป็นผู้โพสขึ้นมาได้ ซึ่งสมาชิกได้เห็นชอบและยอมรับในข้อตกลงก่อนการสมัครเข้าใช้งานเรียบร้อยแล้ว สมาชิกต้องทราบดีว่าจะไม่ใช้เว็บไซต์แห่งนี้เป็นแหล่งแจกจ่ายสิ่งผิดกฎหมาย โดยเฉพาะสื่อลามกอนาจาร หรือสื่อละเมิดลิขสิทธิ์ต่างๆ ข้อมูลที่ปรากฎอยู่บนเว็บไซต์ www.inwdrama.com เป็นเพียงแหล่งเชื่อมโยงไปยังข้อมูลจากสมาชิกเท่านั้น โดยไม่มีข้อมูลต้นฉบับใดๆจัดเก็บอยู่บนเซิร์ฟเวอร์ หรือ ตัวเว็บไซต์เลย และข้อมูลต่างๆที่เผยแพร่ภายในเว็บไซต์จะต้องได้รับความยินยอม หรือเห็นชอบจากเจ้าของลิขสิทธิ์แล้วเท่านั้น
ทำงานหนัก: - สร้างหน้านี้ใช้เวลา: 0.010 วินาที # คิวงาน: 0 คิว