เติมเงินเพื่อแทงบอล และ เล่นเกมส์ {ด้วยบัตรทรูมันนี่} | เพิ่มค่า Upload และ Ratio {ด้วยบัตรทรูมันนี่} | สมัครVIP ได้Seedเป็น2เท่าจากปกติและโหลดฟรีทุกไฟล์ {ด้วยบัตรทรูมันนี่} | บริจาคเว็บแบบสมัคร VIP ผ่านธนาคาร {update ใน 24 ช.ม.}

เทพดราม่า  
10 กระทู้ล่าสุด !!
  ประชาสัมพันธ์ : 2014-04-16 : เปิดฟรี X2 สำหรับ user ปกติ VIP x4 ทุกไฟล์ ถึงสิ้นเดือนเมษายน                  2014-03-02 : ไฟล์ไหนที่เจ้าของไฟล์ห้ามปล่อยต่อ ใครนำไปปล่อยต่อ แบน ทันที                  2014-03-02 : ใครใช้ Utorrent เวอร์ชั่น 3 แล้วมีปัญหา finding reers ให้เปลี่ยนมาใช้ เวอร์ชั่น 1 หรือ 2                  
 : เว็บแนะนำ : เว็บฝากรูป

[ฝรั่ง]-Atlas Shrugged (2011) อัจฉริยะรถด่วนล้ำโลก [720p.Bluray.x264-HDChina][เสียงอังกฤษ - ไทย][บทบรรยายไทย][เสียงไทยบทบรรยายไทยดีวีดีมาสเตอร์]
* ร่วมด้วยช่วยกันแสดงความคิดเห็น, กด Thanks, ให้โหวต เพื่อสร้างกำลังใจและเป็นการขอบคุณต่อผู้นำไฟล์มาปล่อย
* เมื่อดาวน์โหลดเสร็จกรุณาอย่ากดหยุดในทันที ร่วมกันปล่อยไฟล์ให้นานที่สุดเท่าที่ทำได้ ...

อคฺคสฺส ทาตา ลภเต ปุนคฺคํ : ผู้ให้สิ่งที่เลิศ ย่อมได้สิ่งที่เลิศอีก

Download This
[ Download as Zip ]
[ฝรั่ง]-Atlas Shrugged (2011) อัจฉริยะรถด่วนล้ำโลก [720p.Bluray.x264-HDChina][เสียงอังกฤษ - ไทย][บทบรรยายไทย][เสียงไทยบทบรรยายไทยดีวีดีมาสเตอร์]

ขนาดไฟล์ : 3.65 GB (3,921,493,489 bytes)

จำนวนไฟล์ : 1 ไฟล์

Info Hash: f7ae70c930392e22fd75be931be6bd46
Rating ..!!

Rating: 4.6/5 (10 votes cast)


หากไม่สามารถโหลด Torrent ได้ โดยที่ขึ้นว่า torrent is not valid ให้ทำการโหลดแบบ zip ที่ด้านล่างปุ่ม download สีเขียวแล้วไป แตกไฟล์ แทน  แบบรูปนี้

ใครพบเจอโฆษณาแฝงในไฟล์ เช่น ss เป็นรูปโฆษณาไม่เกี่ยวกับไฟล์ หรือ ตัวหนังมีการเขียนโฆษณาเว็บไซต์ แจ้งได้ที่ทีมงาน คนแรกที่แจ้งรับ 10,000 ริง Staff PM

 เพื่อป้องกันปัญหาที่อาจเกิดขึ้นกับการโหลด หนังใหม่,หนังไทยเช่น โหลดไม่ได้ แล้ว ขึ้น Finding Peer ในการ Download ขอให้ท่านใช้โปรแกรม เวอร์ชั่นนี้ เท่านั้น uTorrent uTorrent หรือ \uTorrent" BitComet 0.70

-:- รายละเอียดไฟล์ -:-

ลิ้งค์/รูปประกอบ: http://upload.armuay.com/2013-01-24_05-45-39_0.366514.jpg
[ฝรั่ง]-Atlas Shrugged (2011) อัจฉริยะรถด่วนล้ำโลก [720p.Bluray.x264-HDChina][เสียงอังกฤษ - ไทย][บทบรรยายไทย][เสียงไทยบทบรรยายไทยดีวีดีมาสเตอร์]







General

Unique ID                        : 249796254580267958396405282571075564248 (0xBBED023824E61845A0CDE09FF70DB2D8)

Complete name                    : S:[email protected][email protected]

Format                           : Matroska

File size                        : 3.65 GiB

Duration                         : 1h 37mn

Overall bit rate                 : 5 383 Kbps

Encoded date                     : UTC 2013-01-23 15:18:26

Writing application              : mkvmerge v3.2.0 ( Beginnings ) built on Feb 12 2010 16:46:17

Writing library                  : libebml v0.7.9 + libmatroska v0.8.1



Video

ID                               : 1

Format                           : AVC

Format/Info                      : Advanced Video Codec

Format profile                   : [email protected]

Format settings, CABAC           : Yes

Format settings, ReFrames        : 3 frames

Codec ID                         : V_MPEG4/ISO/AVC

Duration                         : 1h 37mn

Bit rate                         : 3 318 Kbps

Nominal bit rate                 : 3 600 Kbps

Width                            : 1 280 pixels

Height                           : 544 pixels

Display aspect ratio             : 2.35:1

Frame rate mode                  : Constant

Frame rate                       : 24.000 fps

Color space                      : YUV

Chroma subsampling               : 4:2:0

Bit depth                        : 8 bits

Scan type                        : Progressive

Bits/(Pixel*Frame)               : 0.199

Stream size                      : 2.25 GiB (62%)

Writing library                  : x264 core 94

Encoding settings                : cabac=1 / ref=3 / deblock=1:0:0 / analyse=0x3:0x133 / me=umh / subme=10 / psy=1 / psy_rd=1.00:0.00 / mixed_ref=1 / me_range=16 / chroma_me=1 / trellis=2 / 8x8dct=1 / cqm=0 / deadzone=21,11 / fast_pskip=1 / chroma_qp_offset=-2 / threads=20 / sliced_threads=0 / nr=0 / decimate=1 / interlaced=0 / constrained_intra=0 / bframes=3 / b_pyramid=1 / b_adapt=2 / b_bias=0 / direct=3 / weightb=1 / weightp=2 / keyint=240 / keyint_min=24 / scenecut=40 / intra_refresh=0 / rc_lookahead=40 / rc=abr / mbtree=1 / bitrate=3600 / ratetol=0.2 / qcomp=0.60 / qpmin=10 / qpmax=51 / qpstep=4 / ip_ratio=1.40 / aq=1:1.00

Language                         : English



Audio #1

ID                               : 2

Format                           : DTS

Format/Info                      : Digital Theater Systems

Codec ID                         : A_DTS

Duration                         : 1h 37mn

Bit rate mode                    : Constant

Bit rate                         : 1 510 Kbps

Channel(s)                       : 6 channels

Channel positions                : Front: L C R, Side: L R, LFE

Sampling rate                    : 48.0 KHz

Bit depth                        : 24 bits

Compression mode                 : Lossy

Stream size                      : 1.02 GiB (28%)

Title                            : DTS

Language                         : English



Audio #2

ID                               : 3

Format                           : AC-3

Format/Info                      : Audio Coding 3

Mode extension                   : CM (complete main)

Codec ID                         : A_AC3

Duration                         : 1h 37mn

Bit rate mode                    : Constant

Bit rate                         : 448 Kbps

Channel(s)                       : 6 channels

Channel positions                : Front: L C R, Side: L R, LFE

Sampling rate                    : 48.0 KHz

Bit depth                        : 16 bits

Compression mode                 : Lossy

Stream size                      : 311 MiB (8%)

Title                            : AC3 Thai Master

Language                         : Tibetan



Text #1

ID                               : 4

Format                           : VobSub

Muxing mode                      : zlib

Codec ID                         : S_VOBSUB

Codec ID/Info                    : The same subtitle format used on DVDs

Title                            : A480

Language                         : Thai



Text #2

ID                               : 5

Format                           : VobSub

Muxing mode                      : zlib

Codec ID                         : S_VOBSUB

Codec ID/Info                    : The same subtitle format used on DVDs

Title                            : Tt480

Language                         : Thai



Text #3

ID                               : 6

Format                           : VobSub

Muxing mode                      : zlib

Codec ID                         : S_VOBSUB

Codec ID/Info                    : The same subtitle format used on DVDs

Title                            : A1080

Language                         : Thai



Text #4

ID                               : 7

Format                           : VobSub

Muxing mode                      : zlib

Codec ID                         : S_VOBSUB

Codec ID/Info                    : The same subtitle format used on DVDs

Title                            : T1080

Language                         : Thai



ดักนี่ย์ แทกการ์ท เจ้าของบริษัทรถไฟที่ใหญ่ที่สุดในอเมริกา พยายามที่จะทำทุกอย่างเพื่อให้ธุรกิจของเธอคงความเป็นเบอร์ 1 ตลอดไป เธอร่วมกับ เฮนรี่ อัจฉริยะด้านการสื่อสาร ที่เข้ามาช่วยเธอเรื่องการพัฒนาระบบเครื่อนย้าย ด้วยการออกแบบมอเตอร์สุดไฮเทคให้กับขบวนรถไฟรุ่นล่าสุด แนวคิดนี้ถ้าสำเร็จจะก่อให้เกิดการล่มสลายของธุรกิจน้ำมัน และเมื่องานต้นแบบของพวกเขาถูกเผยแพร่ออกไป แทกการ์ท อินดัสทรี่ ก็ต้องเผชิญหน้ากับศัตรูตัวฉกาจที่พยายามทำลายการคิดค้นนี้ให้ล้มเลวลงให้จงได้



















****************************************************************************





]









-:- ถูกใจให้ Point -:-
มอบคะแนนให้ไฟล์นี้ :

ถูกใจได้รับคะแนนรวมแล้ว : 39 แต้ม

ให้คะแนนถูกใจโดย :


roborovski สมาชิกสนับสนุนเว็บไซต์, tomsiam37, prasitpps, atiwat2j, bnc, Phatta009, s1061017, snalampang, pb99, fayzaa123, sawitamporn, HariCeldon, fffakemai, pktpw, bankposh, XXXMan, chonburi101, piew, ratshow, Gentlemen, saifon, BIGBLUE75, maialway, nip, kranchai, papassadint, olddream, leman, musppmus, itoonsms, onimucha, mar7, soleiyu, notenui, data111, jjjrodmanjjj, fzoozaa, phanu25, ratsamitat,
หากไฟล์นี้ถูกใจ คุณสามารถ กดปุ่ม "ถูกใจโหวตให้" เพื่อให้แต้มรางวัลแก่ผู้อับโหลด [รายละเอียดเพิ่มเติม]

-:- Thanks By -:-

-:- Owner -:-

phong2020_ Thank King!User Icon

PM ไปหาเจ้าของไฟล์ ส่งข้อความถึงเจ้าของไฟล์

-:- หมวดหมู่ -:-

Hidef , Blue-Ray

Hidef , Blue-Ray

-:- Bonus -:-

Free 100% !! 



-:- Bookmark -:-

ทำ Bookmark ไฟล์นี้เก็บไว้

( ค่าบริการ Bookmark ไฟล์ละ 10 ริง )

-:- More Info -:-

อับโหลดเมื่อ : 2013-01-24 06:11:24

การเชื่อมต่อล่าสุด : 77d 16:20:20 นาทีที่ผ่านมา

แสดงข้อมูลแล้ว : 1,610 ครั้ง

ดาวน์โหลดไปแล้ว : 602 ครั้ง

ดาวน์โหลดเสร็จ : 426 ครั้ง

แจ้งลบ / ไฟล์เสีย / ผิดกฎ

รายชื่อผู้ที่กำลังอับโหลด  [แสดงข้อมูล]
รายชื่อผู้ที่กำลังดาวน์โหลด  [แสดงข้อมูล]
รายชื่อผู้ที่ดาวน์โหลดสำเร็จแล้ว  [แสดงข้อมูล]
รายชื่อผู้ที่ยังดาวน์โหลดไม่สำเร็จ  [แสดงข้อมูล]

Add a comment

<< ย้อนกลับ      ถัดไป >>
1 - 2

#138793 by soleiyu (ทารก) at 2013-01-24 21:02:34

ขอบคุณมากฮะ

#141982 by maialway (สามัญชน) at 2013-03-02 22:10:44

ขอบคุณนะครับ

1 - 2
<< ย้อนกลับ      ถัดไป >>

Add a comment


จุดประสงค์สำหรับการทำเว็บไซต์แห่งนี้ไม่ได้ทำเพื่อการค้า หรือการพานิชย์หรือสแวงหาผลกำไรใดๆทั้งสิ้น แต่จัดทำขึ้นเป็นเว็บไซต์สำหรับพูดคุยเรื่องหนังภาพยนต์ ข่าวสาร และเทคโนโลยี ต่างๆ หรือแลกเปลี่ยนข้อมูลต่างๆระหว่างสมาชิกด้วยกันเพื่อการศึกษา หรือแนะนำติชม รวมถึงการแสดงความเห็นต่อผลงานสร้างสรรค์ต่างๆ และเน้นเพื่อใช้ประโยชน์สำหรับความบันเทิงส่วนบุคคลภายในที่พักอาศัยเท่านั้น ห้ามิให้นำไปจำหน่ายเพื่อการพานิช โดยยึดหลักตามประมวลกฎหมาย พ.ร.บ. ลิขสิทธิ์ พ.ศ. 2537 มาตราที่ 32 และ 35 ในส่วนที่ 6 ข้อยกเว้นการละเมิดลิขสิทธิ์ ดังนั้น เว็บไซต์แห่งนี้ www.inwdrama.com ไม่สามารถรับผิดชอบต่อข้อความ หรือข้อมูลใดๆที่สมาชิกเป็นผู้โพสขึ้นมาได้ ซึ่งสมาชิกได้เห็นชอบและยอมรับในข้อตกลงก่อนการสมัครเข้าใช้งานเรียบร้อยแล้ว สมาชิกต้องทราบดีว่าจะไม่ใช้เว็บไซต์แห่งนี้เป็นแหล่งแจกจ่ายสิ่งผิดกฎหมาย โดยเฉพาะสื่อลามกอนาจาร หรือสื่อละเมิดลิขสิทธิ์ต่างๆ ข้อมูลที่ปรากฎอยู่บนเว็บไซต์ www.inwdrama.com เป็นเพียงแหล่งเชื่อมโยงไปยังข้อมูลจากสมาชิกเท่านั้น โดยไม่มีข้อมูลต้นฉบับใดๆจัดเก็บอยู่บนเซิร์ฟเวอร์ หรือ ตัวเว็บไซต์เลย และข้อมูลต่างๆที่เผยแพร่ภายในเว็บไซต์จะต้องได้รับความยินยอม หรือเห็นชอบจากเจ้าของลิขสิทธิ์แล้วเท่านั้น
ทำงานหนัก: - สร้างหน้านี้ใช้เวลา: 0.009 วินาที # คิวงาน: 0 คิว